Details for this torrent 

Ice.Age.4.Continental.Drift.2012.DVDRip.XVID.AC3.HQ.Hive-CM8
Type:
Video > Movies
Files:
4
Size:
1.33 GiB (1431487935 Bytes)
Info:
IMDB
Spoken language(s):
English
Texted language(s):
English
Uploaded:
2012-10-04 11:09:37 GMT
By:
Charlie303 Trusted
Seeders:
0
Leechers:
0
Comments
1  

Info Hash:
A71903D02DE86EC8B2002C973E6C4AA59FEC2BAC




(Problems with magnets links are fixed by upgrading your torrent client!)
Ice.Age.4.Continental.Drift.2012.DVDRip.XVID.AC3.HQ
Thx Hive
CM8 Doing It Right The First Time

Source: DVD-R Portuguese?

Encode:
sorry guys for the wait time, thought bluray would follow after dvd
and waited for it, but somehow bluray date is in 2 months
so its still possible this is a dvdscr
could be wrong, either way i am happy to have it
so here is my rip from the dvd till then

wasnt happy with colouring, so fixed that. Also
added brightness,sharpness,fixed rgb and denoise
got very nice
enjoy

Video: 720x304 @bitrate 1700 2pass
Audio: English DTS to AC3 5.1 @448
Subs: Yes, English in srt /subs
Sample: Yes, included 
http://www.imdb.com/title/tt1667889/

General
Complete name: Ice.Age.4.Continental.Drift.2012.DVDRip.XVID.AC3.HQ.Hive-CM8.avi
Format: AVI
Format/Info: Audio Video Interleave
File size: 1.32 GiB
Duration: 1h 27mn
Overall bit rate: 2 153 Kbps
Writing application: Nandub v1.0rc2
Writing library: Nandub build 1853/release

Video
ID: 0
Format: MPEG-4 Visual
Format profile: Advanced [email protected]
Format settings, BVOP: 2
Format settings, QPel: Yes
Format settings, GMC: No warppoints
Format settings, Matrix: Default (H.263)
Muxing mode: Packed bitstream
Codec ID: XVID
Codec ID/Hint: XviD
Duration: 1h 27mn
Bit rate: 1 695 Kbps
Width: 720 pixels
Height: 304 pixels
Display aspect ratio: 2.35:1
Frame rate: 23.976 fps
Color space: YUV
Chroma subsampling: 4:2:0
Bit depth: 8 bits
Scan type: Progressive
Compression mode: Lossy
Bits/(Pixel*Frame): 0.323
Stream size: 1.04 GiB (79%)
Writing library: XviD 1.2.1 (UTC 2008-12-04)

Audio
ID: 1
Format: AC-3
Format/Info: Audio Coding 3
Mode extension: CM (complete main)
Format settings, Endianness: Big
Codec ID: 2000
Duration: 1h 27mn
Bit rate mode: Constant
Bit rate: 448 Kbps
Channel(s): 6 channels
Channel positions: Front: L C R, Side: L R, LFE
Sampling rate: 48.0 KHz
Bit depth: 16 bits
Compression mode: Lossy
Stream size: 281 MiB (21%)
Alignment: Split accross interleaves
Interleave, duration: 42 ms (1.00 video frame)
Interleave, preload duration: 500 ms

Comments